Сегодня идет свободное скачивание без начисления Download

(Author's Song) Владимир Высоцкий - Нью - Йоркский концерт (2CD, 1979) - 1996 [FLAC, image +.cue, lossless]

Ответить на тему
 
Автор
Сообщение

sergej644 ®

Пол:

Стаж: 6 лет 5 месяцев

Сообщений: 618

Торрент-статистика

Пост 27-Янв-2019 14:02

[Цитировать]

-Владимир Высоцкий - Нью - Йоркский концерт (2CD, 1979)--
Год издания: 1996
Страна: USSR
Жанр: Author's Song
Продолжительность: 01:31:35-Лейбл издания: Solyd Records
Страна-выпуска диска: Russia
Номер по каталогу: SLR 0061/62-Формат: FLAC
Битрейт аудио: Lossless
Тип рипа: image +.cue
Наличие сканов в содержимом раздачи: да
-

Трэклист

CD 1 | 00:45:58


01. Мы вращаем Землю (3:10)
02. Тот, который не стрелял (4:29)
03. Кони привередливые (5:15)
04. Москва - Одесса (2:43)
05. Я не люблю (2:31)
06. Утренняя гимнастика (2:02)
07. Марафон (1:49)
08. Песенка про прыгуна в высоту (3:22)
09. Натянутый канат (3:26)
10. Погоня (3:18)
11. Старый дом (3:07)
12. Диалог у телевизора (3:36)
13. Продолжение песни Диалог у телевизора (1:00)
14. S.O.S. (3:39)
15. Горное эхо (2:30)

CD 2 | 00:45:37


16. Чужая Колея (3:10)
17. Песня Автозавистника (2:35)
18. Баллада О Детстве (5:51)
19. Антиалкогольная (3:52)
20. Купола (4:26)
21. Иноходец (Скачки) (2:28)
22. Бермудский Треугольник (4:50)
23. Кругом Пятьсот (2:39)
24. 'За Меня Невеста Отрыдает Честно...' (2:11)
25. Все Не Так, Ребята (4:08)
26. Инструкция Перед Поездкой (4:22)
27. Сыт Я По Горло (1:10)
28. Охота На Волков (3:54)
-

Лог создания рипа

CD 1

Код:
Exact Audio Copy V0.99 prebeta 5 from 4. May 2009
Отчёт EAC об извлечении, выполненном 18. декабря 2011, 7:18
Владимир Высоцкий / Нью-Йорский концерт (CD1)
Дисковод: MATSHITADVD-RAM UJ890AS   Adapter: 0  ID: 1
Режим чтения                 : Достоверность
Использование точного потока : Да
Отключение кэша аудио        : Да
Использование указателей C2  : Нет
Коррекция смещения при чтении                     : 102
Способность читать области Lead-in и Lead-out     : Нет
Заполнение пропущенных сэмплов тишиной            : Да
Удаление блоков с тишиной в начале и конце        : Нет
При вычислениях CRC использовались нулевые сэмплы : Да
Интерфейс                                         : Встроенный Win32-интерфейс для Win NT/2000
Выходной формат          : Пользовательский кодировщик
Выбранный битрейт        : 768 kBit/s
Качество                 : Высокий
Добавление ID3-тэга      : Нет
Утилита сжатия           : C:\Program Files (x86)\Exact Audio Copy\FLAC\FLAC.EXE
Дополнительные параметры : -6 -V -T "ARTIST=%a" -T "TITLE=%t" -T "ALBUM=%g" -T "DATE=%y" -T "TRACKNUMBER=%n" -T "GENRE=%m" -T "COMMENT=%e" %s -o %d
TOC извлечённого CD
     Трек |   Старт  | Длительность | Начальный сектор | Конечный сектор
    ---------------------------------------------------------------------
       1  |  0:00.33 |    3:10.25   |          33      |      14307
       2  |  3:10.58 |    4:29.07   |       14308      |      34489
       3  |  7:39.65 |    5:14.70   |       34490      |      58109
       4  | 12:54.60 |    2:43.15   |       58110      |      70349
       5  | 15:38.00 |    2:31.25   |       70350      |      81699
       6  | 18:09.25 |    2:02.13   |       81700      |      90862
       7  | 20:11.38 |    1:49.05   |       90863      |      99042
       8  | 22:00.43 |    3:21.50   |       99043      |     114167
       9  | 25:22.18 |    3:25.57   |      114168      |     129599
      10  | 28:48.00 |    3:18.33   |      129600      |     144482
      11  | 32:06.33 |    3:06.67   |      144483      |     158499
      12  | 35:13.25 |    3:36.08   |      158500      |     174707
      13  | 38:49.33 |    0:59.65   |      174708      |     179197
      14  | 39:49.23 |    3:39.20   |      179198      |     195642
      15  | 43:28.43 |    2:30.20   |      195643      |     206912
Характеристики диапазона извлечения и сообщения об ошибках
Выбранный диапазон
     Имя файла D:\My Disc\Владимир Высоцкий - Нью-Йорский концерт (CD1).wav
     Пиковый уровень 89.1 %
     Качество диапазона 100.0 %
     CRC копии A6C114AE
     Копирование... OK
Ошибок не произошло
AccurateRip: сводка
Трек  1  точное извлечение (доверие 2)  [E672CEED]
Трек  2  точное извлечение (доверие 2)  [C1D07DB8]
Трек  3  точное извлечение (доверие 2)  [5233B551]
Трек  4  точное извлечение (доверие 2)  [D1C40DFF]
Трек  5  точное извлечение (доверие 2)  [5E349EFB]
Трек  6  точное извлечение (доверие 2)  [EBE111AE]
Трек  7  точное извлечение (доверие 2)  [A3F5C084]
Трек  8  точное извлечение (доверие 2)  [EF50B4A8]
Трек  9  точное извлечение (доверие 2)  [C66886DA]
Трек 10  точное извлечение (доверие 2)  [65E576CB]
Трек 11  точное извлечение (доверие 2)  [F8EF39DE]
Трек 12  точное извлечение (доверие 2)  [6ECE8255]
Трек 13  точное извлечение (доверие 2)  [39EB2B9B]
Трек 14  точное извлечение (доверие 2)  [A9573466]
Трек 15  точное извлечение (доверие 2)  [571C9711]
Все треки извлечены точно
Конец отчёта

CD 2

Код:
Exact Audio Copy V0.99 prebeta 5 from 4. May 2009
Отчёт EAC об извлечении, выполненном 18. декабря 2011, 8:12
Владимир Высоцкий / Нью-Йоркский Концерт. Часть 2
Дисковод: MATSHITADVD-RAM UJ890AS   Adapter: 0  ID: 1
Режим чтения                 : Достоверность
Использование точного потока : Да
Отключение кэша аудио        : Да
Использование указателей C2  : Нет
Коррекция смещения при чтении                     : 102
Способность читать области Lead-in и Lead-out     : Нет
Заполнение пропущенных сэмплов тишиной            : Да
Удаление блоков с тишиной в начале и конце        : Нет
При вычислениях CRC использовались нулевые сэмплы : Да
Интерфейс                                         : Встроенный Win32-интерфейс для Win NT/2000
Выходной формат          : Пользовательский кодировщик
Выбранный битрейт        : 768 kBit/s
Качество                 : Высокий
Добавление ID3-тэга      : Нет
Утилита сжатия           : C:\Program Files (x86)\Exact Audio Copy\FLAC\FLAC.EXE
Дополнительные параметры : -6 -V -T "ARTIST=%a" -T "TITLE=%t" -T "ALBUM=%g" -T "DATE=%y" -T "TRACKNUMBER=%n" -T "GENRE=%m" -T "COMMENT=%e" %s -o %d
TOC извлечённого CD
     Трек |   Старт  | Длительность | Начальный сектор | Конечный сектор
    ---------------------------------------------------------------------
      16  |  0:00.22 |    3:09.68   |          22      |      14264
      17  |  3:10.15 |    2:35.30   |       14265      |      25919
      18  |  5:45.45 |    5:51.02   |       25920      |      52246
      19  | 11:36.47 |    3:51.48   |       52247      |      69619
      20  | 15:28.20 |    4:26.37   |       69620      |      89606
      21  | 19:54.57 |    2:27.38   |       89607      |     100669
      22  | 22:22.20 |    4:50.05   |      100670      |     122424
      23  | 27:12.25 |    2:39.30   |      122425      |     134379
      24  | 29:51.55 |    2:11.25   |      134380      |     144229
      25  | 32:03.05 |    4:07.72   |      144230      |     162826
      26  | 36:11.02 |    4:22.13   |      162827      |     182489
      27  | 40:33.15 |    1:09.40   |      182490      |     187704
      28  | 41:42.55 |    3:54.35   |      187705      |     205289
Характеристики диапазона извлечения и сообщения об ошибках
Выбранный диапазон
     Имя файла D:\My Disc\Владимир Высоцкий - Нью-Йоркский Концерт. Часть 2.wav
     Пиковый уровень 83.1 %
     Качество диапазона 99.9 %
     CRC копии 05635ED1
     Копирование... OK
Ошибок не произошло
AccurateRip: сводка
Трек 16  нет в базе данных
Трек 17  нет в базе данных
Трек 18  нет в базе данных
Трек 19  нет в базе данных
Трек 20  нет в базе данных
Трек 21  нет в базе данных
Трек 22  нет в базе данных
Трек 23  нет в базе данных
Трек 24  нет в базе данных
Трек 25  нет в базе данных
Трек 26  нет в базе данных
Трек 27  нет в базе данных
Трек 28  нет в базе данных
Ни одного трека нет в базе AccurateRip
Конец отчёта

Индексная карта (non-compilant .cue)

CD 1

Код:
REM GENRE Chanson
REM DATE 1996
REM DISCID A90AC60F
REM COMMENT "ExactAudioCopy v0.99pb5"
PERFORMER "Владимир Высоцкий"
TITLE "Нью-Йорский концерт (CD1)"
FILE "Владимир Высоцкий - Нью-Йорский концерт (CD1).flac" WAVE
  TRACK 01 AUDIO
    TITLE "Мы вращаем Землю"
    PERFORMER "Владимир Высоцкий"
    INDEX 00 00:00:00
    INDEX 01 00:00:33
  TRACK 02 AUDIO
    TITLE "Тот, который не стрелял"
    PERFORMER "Владимир Высоцкий"
    INDEX 00 03:10:55
    INDEX 01 03:10:58
    INDEX 02 05:01:08
  TRACK 03 AUDIO
    TITLE "Кони привередливые"
    PERFORMER "Владимир Высоцкий"
    INDEX 00 07:39:63
    INDEX 01 07:39:65
  TRACK 04 AUDIO
    TITLE "Москва - Одесса"
    PERFORMER "Владимир Высоцкий"
    INDEX 00 12:54:58
    INDEX 01 12:54:60
  TRACK 05 AUDIO
    TITLE "Я не люблю"
    PERFORMER "Владимир Высоцкий"
    INDEX 00 15:37:73
    INDEX 01 15:38:00
  TRACK 06 AUDIO
    TITLE "Утренняя гимнастика"
    PERFORMER "Владимир Высоцкий"
    INDEX 00 18:09:23
    INDEX 01 18:09:25
  TRACK 07 AUDIO
    TITLE "Марафон"
    PERFORMER "Владимир Высоцкий"
    INDEX 00 20:11:35
    INDEX 01 20:11:38
  TRACK 08 AUDIO
    TITLE "Песенка про прыгуна в высоту"
    PERFORMER "Владимир Высоцкий"
    INDEX 00 22:00:40
    INDEX 01 22:00:43
  TRACK 09 AUDIO
    TITLE "Натянутый канат"
    PERFORMER "Владимир Высоцкий"
    INDEX 00 25:22:15
    INDEX 01 25:22:18
  TRACK 10 AUDIO
    TITLE "Погоня"
    PERFORMER "Владимир Высоцкий"
    INDEX 00 28:47:73
    INDEX 01 28:48:00
  TRACK 11 AUDIO
    TITLE "Старый дом"
    PERFORMER "Владимир Высоцкий"
    INDEX 00 32:06:30
    INDEX 01 32:06:33
  TRACK 12 AUDIO
    TITLE "Диалог у телевизора"
    PERFORMER "Владимир Высоцкий"
    INDEX 00 35:13:23
    INDEX 01 35:13:25
  TRACK 13 AUDIO
    TITLE "Продолжение песни Диалог у телевизора"
    PERFORMER "Владимир Высоцкий"
    INDEX 00 38:49:30
    INDEX 01 38:49:33
  TRACK 14 AUDIO
    TITLE "S.O.S."
    PERFORMER "Владимир Высоцкий"
    INDEX 00 39:49:20
    INDEX 01 39:49:23
  TRACK 15 AUDIO
    TITLE "Горное эхо"
    PERFORMER "Владимир Высоцкий"
    INDEX 00 43:28:40
    INDEX 01 43:28:43

CD 2

Код:
REM GENRE Chanson
REM DATE 1996
REM DISCID B50AB10D
REM COMMENT "ExactAudioCopy v0.99pb5"
PERFORMER "Владимир Высоцкий"
TITLE "Нью-Йоркский Концерт. Часть 2"
FILE "Владимир Высоцкий - Нью-Йоркский Концерт. Часть 2.flac" WAVE
  TRACK 16 AUDIO
    TITLE "Чужая Колея"
    PERFORMER "Владимир Высоцкий"
    INDEX 00 00:00:00
    INDEX 01 00:00:22
  TRACK 17 AUDIO
    TITLE "Песня Автозавистника"
    PERFORMER "Владимир Высоцкий"
    INDEX 00 03:10:12
    INDEX 01 03:10:15
  TRACK 18 AUDIO
    TITLE "Баллада О Детстве"
    PERFORMER "Владимир Высоцкий"
    INDEX 00 05:45:42
    INDEX 01 05:45:45
  TRACK 19 AUDIO
    TITLE "Антиалкогольная"
    PERFORMER "Владимир Высоцкий"
    INDEX 00 11:36:42
    INDEX 01 11:36:47
  TRACK 20 AUDIO
    TITLE "Купола"
    PERFORMER "Владимир Высоцкий"
    INDEX 00 15:28:17
    INDEX 01 15:28:20
  TRACK 21 AUDIO
    TITLE "Иноходец (Скачки)"
    PERFORMER "Владимир Высоцкий"
    INDEX 00 19:54:55
    INDEX 01 19:54:57
  TRACK 22 AUDIO
    TITLE "Бермудский Треугольник"
    PERFORMER "Владимир Высоцкий"
    INDEX 00 22:22:17
    INDEX 01 22:22:20
  TRACK 23 AUDIO
    TITLE "Кругом Пятьсот"
    PERFORMER "Владимир Высоцкий"
    INDEX 00 27:12:22
    INDEX 01 27:12:25
  TRACK 24 AUDIO
    TITLE "'За Меня Невеста Отрыдает Честно...'"
    PERFORMER "Владимир Высоцкий"
    INDEX 00 29:51:52
    INDEX 01 29:51:55
  TRACK 25 AUDIO
    TITLE "Все Не Так, Ребята"
    PERFORMER "Владимир Высоцкий"
    INDEX 00 32:03:02
    INDEX 01 32:03:05
  TRACK 26 AUDIO
    TITLE "Инструкция Перед Поездкой"
    PERFORMER "Владимир Высоцкий"
    INDEX 00 36:10:72
    INDEX 01 36:11:02
  TRACK 27 AUDIO
    TITLE "Сыт Я По Горло"
    PERFORMER "Владимир Высоцкий"
    INDEX 00 40:33:12
    INDEX 01 40:33:15
  TRACK 28 AUDIO
    TITLE "Охота На Волков"
    PERFORMER "Владимир Высоцкий"
    INDEX 00 41:42:50
    INDEX 01 41:42:55
-

Дополнительная информация об альбоме

"Нью-Йоркский концерт" Владимира Высоцкого был записан 17 января 1979 года в Brooklyn College. Сокращенный вариант записи с нарушенным порядком песен был издан в США на двух долгоиграющих пластинках без указания фирмы и номера. Solyd Recods представляет первое полное издание концерта. Из оригинальной мастер-ленты вырезаны только переводы песен на английский язык.
--

_________________
Вне форума [Профиль] [ЛС]
Похожие темы
Форум Тема Автор Торрент Отв. Посл. сообщение
./templates/default/images/folder_dl.gif Авторская песня (Author's Song) Высоцкий Владимир - Антология творчества (147 CD) 1994 - 2012 [MP3, tracks, 320 kbps] sergej644
1 | 0

1 | 2092

7

2018-01-26 00:34
sergej644 Последнее
./templates/default/images/folder_dl.gif Авторская песня (Author's Song) Владимир Высоцкий - Концерт в Торонто (2CD, 1979) - 1997 [FLAC, image +.cue, lossless] sergej644
1 | 0

0 | 114

3

2019-01-27 14:01
sergej644 Последнее
./templates/default/images/folder_dl.gif Авторская песня (Author's Song) Владимир Высоцкий - Le Monument (Enregistrements de 1973 - 1977) - 1995 [MP3, tracks, 320 kbps] sergej644
1 | 0

0 | 138

3

2019-01-27 14:05
sergej644 Последнее
Показать сообщения:    
Ответить на тему

Текущее время: Сегодня 23:12

Часовой пояс: GMT + 3



Вы не можете начинать темы
Вы не можете отвечать на сообщения
Вы не можете редактировать свои сообщения
Вы не можете удалять свои сообщения
Вы не можете голосовать в опросах
Вы не можете прикреплять файлы к сообщениям
Вы не можете скачивать файлы